Details for this torrent 

Logan (2017) 720p BluRay x264 Eng.Hindi Mafiaking M2Tv
Type:
Video > Movies
Files:
2
Size:
1.33 GiB (1424760693 Bytes)
Info:
IMDB
Uploaded:
2017-06-11 18:46:57 GMT
By:
mafiaaking
Seeders:
0
Leechers:
0
Comments
0  

Info Hash:
C6D7EB3CA4F400910B168093A5BB6BC3047B05B2




(Problems with magnets links are fixed by upgrading your torrent client!)
Logan (2017) 720p BluRay x264 [Dual-Audio][English DD 5.1 + Hindi DD 5.1] - Mafiaking - M2Tv

IMDB=http://www.imdb.com/title/tt3315342/

Ratings: 8.3/10

Genere:        Action, Drama, Sci-Fi 

General
Complete name                            : Logan (2017) 720p BluRay x264 [Dual-Audio][English DD 5.1 + Hindi DD 5.1] - Mafiaking - M2Tv.mkv
Format                                   : Matroska
File size                                : 1.32 GiB
Duration                                 : 2 h 17 min
Overall bit rate                         : 1 375 kb/s

Video
ID                                       : 1
Format                                   : AVC
Duration                                 : 2 h 17 min
Bit rate                                 : 925 kb/s
Width                                    : 1 280 pixels
Height                                   : 536 pixels
Frame rate                               : 23.976 (24000/1001) FPS
Stream size                              : 909 MiB (67%)
Title                                    : Mafiaking
Language                                 : English

Audio #1
ID                                       : 2
Format                                   : AC-3
Duration                                 : 2 h 17 min
Bit rate                                 : 224 kb/s
Channel(s)                               : 6 channels
Sampling rate                            : 48.0 kHz
Stream size                              : 220 MiB (16%)
Title                                    : Mafiaking
Language                                 : Hindi

Audio #2
ID                                       : 3
Format                                   : AC-3
Duration                                 : 2 h 17 min
Bit rate                                 : 224 kb/s
Channel(s)                               : 6 channels
Sampling rate                            : 48.0 kHz
Stream size                              : 220 MiB (16%)
Title                                    : Mafiaking
Language                                 : English

Screens:-
 
https://www.lookimg.com/image/zKKsq 
https://www.lookimg.com/image/zKg2Q 
https://www.lookimg.com/image/zKkYW 
https://www.lookimg.com/image/zKonh 
https://www.lookimg.com/image/zK8Qr 
https://www.lookimg.com/image/zKfTj 
https://www.lookimg.com/image/zKhto 
https://www.lookimg.com/image/zKTJH 
https://www.lookimg.com/image/zK0kV 
https://www.lookimg.com/image/zKqVK 
https://www.lookimg.com/image/zKGss